MejorTorrent : variados extend Lifestyle & Home (Books) | African American (Books) | Christianity (Books)
Inicio   -   Ayuda   -   Contacto   -   últimos Torrents

Torrents
Documentales842
Películas11256
Películas HD2068
Series1961
  Episodios22513
Series HD244
  Episodios2743
Juegos2689
  PC1736
Variados1521
  Deportes36
  Programas592
  Videoclips102
  Otros722
Música MP3 3525
Total Torrents57258

Información
Esta web no contiene ningún tipo de fichero almacenado.

Todos los archivos se comparten mediante el BitTorrent, un programa P2P de intercambio entre usuarios.



Descarga la última versión de uTorrent y baja a la máxima velocidad:
Pink - Just Give Me A Reason (Ft. Nate Ruess)
Total Descargas:  1.873 En Noviembre:  1.873

Fecha:  2016-09-26



Torrent:      Descargar         Tamaño:  41,13 MB
Descripción:

General
Complete name : P!nk Ft. Nate Ruess - Just Give Me A Reason (1080p) x264 [VX] [P2PDL].mp4
Format : MPEG-4
Format profile : Base Media / Version 2
Codec ID : mp42
File size : 37.3 MiB
Duration : 4mn 2s
Overall bit rate mode : Variable
Overall bit rate : 1 290 Kbps

Video
Format : AVC
Format/Info : Advanced Video Codec
Format profile : High@L4.0
Width : 1 920 pixels
Height : 800 pixels
Display aspect ratio : 2.40:1
Frame rate mode : Variable
Frame rate : 23.976 fps
Stream size : 33.4 MiB (90%)
Writing library : x264 core 129

Audio
ID : 2
Format : AAC
Bit rate mode : Variable
Bit rate : 128 Kbps
Channel(s) : 2 channels
Channel positions : Front: L R
Sampling rate : 48.0 KHz
Stream size : 3.70 MiB (10%)

Subtitles : No



Volver al índice de Variados







Datos legales


21:39:42
computer